Play It Again, Dick

Сыграй это еще раз, Дик


Dallas_JR_Returns_h500


Год выпуска: 2014
Страна: США
Жанр: комедия
Продолжительность: ~00:10:00
Перевод: sdjobo, Kattish, Ibutyrin
Озвучание: Мария Ascolta Артемова
Режиссёр: Вьет Нгуйен (Viet Nguyen)


В ролях: Райан Хансен, Вьет Нгуйен, Роуз МакАйвер, Энрико Колантони, Перси Даггс III, Кристофер Дин, Кайл Галлнер, Кристен Белл, Роберт Бакли, Фрэнсис Капра...


Описание: Райан Хансен пытается создать спин-офф Вероники Марс. Он собирает своих приятелей по шоу, чтобы помогли ему снять трейлер и сдвинуть шоу с мертвой точки.


Качество: WEBRip
Формат: AVI
Видео кодек: XviD
Аудио кодек: mp3
Видео: XviD / 624×352 / 16:9 / 1387 kbps / 23.976 fps / 0.263 bit/pixel
Аудио: RUS VO by Ascolta / mp3 / 48.0 KHz / 192 kbps / 2 channels
Аудио: Original / mp3 / 48.0 KHz / 192 kbps / 2 channels

Media Info »

Format : AVI
Format/Info : Audio Video Interleave
File size : 101 MiB
Duration : 7mn 54s
Overall bit rate : 1 784 Kbps
Writing application : VirtualDubMod 1.5.10.2 (build 2540/release)
Writing library : VirtualDubMod build 2540/releaseVideo
ID : 0
Format : xvid
Codec ID : xvid
Duration : 7mn 54s
Bit rate : 1 386 Kbps
Width : 624 pixels
Height : 352 pixels
Display aspect ratio : 16:9
Frame rate : 23.976 fps
Bits/(Pixel*Frame) : 0.263
Stream size : 78.3 MiB (78%) Audio #1
ID : 1
Format : MPEG Audio
Format version : Version 1
Format profile : Layer 3
Codec ID : 55
Codec ID/Hint : MP3
Duration : 7mn 54s
Bit rate mode : Constant
Bit rate : 192 Kbps
Channel (s) : 2 channels
Sampling rate : 48.0 KHz
Compression mode : Lossy
Stream size : 10.8 MiB (11%)
Alignment : Aligned on interleaves
Interleave, duration : 42 ms (1.00 video frame)
Interleave, preload duration : 504 ms
Title : by ascolta-info.ru

Audio #2
ID : 2
Format : MPEG Audio
Format version : Version 1
Format profile : Layer 3
Codec ID : 55
Codec ID/Hint : MP3
Duration : 7mn 54s
Bit rate mode : Constant
Bit rate : 192 Kbps
Channel (s) : 2 channels
Sampling rate : 48.0 KHz
Compression mode : Lossy
Stream size : 10.8 MiB (11%)
Alignment : Aligned on interleaves
Interleave, duration : 42 ms (1.00 video frame)
Interleave, preload duration : 504 ms


Скачать »

Яндекс.Диск

rutracker.ru



МАТЕРИАЛ ПРЕДОСТАВЛЕН ТОЛЬКО ДЛЯ ОЗНАКОМЛЕНИЯ
Изменение данных (аудио, видео, постеры) при копировании без разрешения администратора сайта ЗАПРЕЩЕНО!