Inside Amy Schumer

Внутри Эми Шумер



Год выпуска: 2014
Страна: США
Жанр: комедия
Продолжительность: ~00:10:00
Перевод: evvallo
Озвучание: Мария Ascolta Артемова, Никита Коваль
Режиссёры: Райан МакФол, Нил Бреннан, Стивен К. Цутида...


В ролях: Эми Шумер, Кевин Кэйн, Кайл Данниган, Ким Карамел, Бриджет Эверетт, Меган Вульф, Майк Хьюстон, Маргарет Роуз Шампейн, Грета Ли, Грэйс Эдвардс...


Описание: Эми Бет Шумер — известная американская стэнд-ап комедиантка, актриса, писательница. «Внутри Эми Шумер» новое скетч-шоу, в котором Эми является сценаристом, исполнительным продюсером и актрисой, исполняющей главную роль.


Качество: HDTV 720 p
Формат: MKV
Видео кодек: V_MPEG4
Аудио кодек: AC3
Видео: V_MPEG4 / 1280×720 / 16:9 / 4032 kbps / 23.976 fps / 0.181 bit/pixel
Аудио: RUS DVO by Ascolta&NikiStudio / AC3 / 48.0 KHz / 192 kbps / 2 channels
Аудио: Original / AC3 / 48.0 KHz / 192 kbps / 2 channels

Media Info »

Video
ID : 1
Format : AVC
Format/Info : Advanced Video Codec
Format profile : Main@L3.2
Format settings, CABAC : Yes
Format settings, ReFrames : 3 frames
Codec ID : V_MPEG4/ISO/AVC
Duration : 21mn 17s
Bit rate mode : Constant
Bit rate : 4 000 Kbps
Width : 1 280 pixels
Height : 720 pixels
Display aspect ratio : 16:9
Frame rate mode : Constant
Frame rate : 23.976 fps
Standard : NTSC
Color space : YUV
Chroma subsampling : 4:2:0
Bit depth : 8 bits
Scan type : Progressive
Bits/(Pixel*Frame) : 0.181
Stream size : 596 MiB (89%)
Language : English
Default : Yes
Forced : No

Audio #1
ID : 2
Format : AC-3
Format/Info : Audio Coding 3
Mode extension : CM (complete main)
Format settings, Endianness : Big
Codec ID : A_AC3
Duration : 21mn 17s
Bit rate mode : Constant
Bit rate : 192 Kbps
Channel (s) : 2 channels
Channel positions : Front: L R
Sampling rate : 48.0 KHz
Bit depth : 16 bits
Compression mode : Lossy
Stream size : 29.2 MiB (4%)
Default : Yes
Forced : No

Audio #2
ID : 3
Format : AC-3
Format/Info : Audio Coding 3
Mode extension : CM (complete main)
Format settings, Endianness : Big
Codec ID : A_AC3
Duration : 21mn 17s
Bit rate mode : Constant
Bit rate : 192 Kbps
Channel (s) : 2 channels
Channel positions : Front: L R
Sampling rate : 48.0 KHz
Bit depth : 16 bits
Compression mode : Lossy
Stream size : 29.2 MiB (4%)
Default : No
Forced : No


Скачать »



МАТЕРИАЛ ПРЕДОСТАВЛЕН ТОЛЬКО ДЛЯ ОЗНАКОМЛЕНИЯ
Изменение данных (аудио, видео, постеры) при копировании без разрешения администратора сайта ЗАПРЕЩЕНО!