Dallas: J.R. Returns

Даллас: Возвращение Джей Ар


Dallas_JR_Returns_h500


Год выпуска: 1996
Страна: США
Жанр: мелодрама, криминал
Продолжительность: 01:30:00
Перевод: Оксана Дьяченко, andron7851, Mashakochubey, alrofficial, yuri_poles и yarina0990
Озвучание: Мария Ascolta Артемова
Режиссёр: Леонард Кацман (Leonard Katzman)


В ролях: Розалинд Аллен, Крис Деметрал, Патрик Даффи, Линда Грэй, Ларри Хэгмэн, Омри Кац, Дебора Келлнер, Джордж Кеннеди, Кен Керчевал, Одри Ландерс, Трэйси Скоггинс и др. ...


Описание: Несколько лет спустя Джей Ар живет в Европе, в то время как Бобби Юинг владеет Саутфорком вместе со своим сыном Кристофером, и больше не занимается нефтью, а Клифф Барнс по-прежнему является президентом «Юинг Ойл», наслаждаясь своей победой над Джей Ар. Тем не менее все не так хорошо, как кажется на первый взгляд. Бобби хочет продать Саутфорк, а Клифф — «Юинг Ойл» гигантскому конгломерату. После визита в «Юинг Ойл», Джей Ар узнает, что Джок Юинг оставил Джону Россу акций компании на двести миллионов долларов. Так как Джон Росс живет в Европе со Сью Эллен, он не знает о своей доли в компании, а его отец, Джей Ар, хочет заполучить его деньги.


Качество: DVDRip
Формат: AVI
Видео кодек: XviD
Аудио кодек: mp3
Видео: XviD / 720×576 / 4:3 / 2007 kbps / 23.976 fps / 0.202 bit/pixel
Аудио: RUS VO by Ascolta / mp3 / 48.0 KHz / 192 kbps / 2 channels
Аудио: Original / mp3 / 48.0 KHz / 192 kbps / 2 channels

Media Info »

Video
ID : 0
Format : xvid
Codec ID : xvid
Duration : 1h 30mn
Bit rate : 2 007 Kbps
Width : 720 pixels
Height : 576 pixels
Display aspect ratio : 4:3
Frame rate : 23.976 fps
Standard : PAL
Bits/(Pixel*Frame) : 0.202
Stream size : 1.27 GiB (83%) Audio #1
ID : 1
Format : MPEG Audio
Format version : Version 1
Format profile : Layer 3
Codec ID : 55
Codec ID/Hint : MP3
Duration : 1h 30mn
Bit rate mode : Constant
Bit rate : 192 Kbps
Channel (s) : 2 channels
Sampling rate : 48.0 KHz
Compression mode : Lossy
Stream size : 125 MiB (8%)
Alignment : Aligned on interleaves
Interleave, duration : 42 ms (1.00 video frame)
Interleave, preload duration : 504 msAudio #2
ID : 2
Format : MPEG Audio
Format version : Version 1
Format profile : Layer 3
Mode : Joint stereo
Mode extension : MS Stereo
Codec ID : 55
Codec ID/Hint : MP3
Duration : 1h 30mn
Bit rate mode : Constant
Bit rate : 192 Kbps
Channel (s) : 2 channels
Sampling rate : 48.0 KHz
Compression mode : Lossy
Stream size : 125 MiB (8%)
Alignment : Split accross interleaves
Interleave, duration : 42 ms (1.00 video frame)
Interleave, preload duration : 500 ms



МАТЕРИАЛ ПРЕДОСТАВЛЕН ТОЛЬКО ДЛЯ ОЗНАКОМЛЕНИЯ
Изменение данных (аудио, видео, постеры) при копировании без разрешения администратора сайта ЗАПРЕЩЕНО!