Dallas War of the Ewings

Даллас: Война Юингов


Dallas_WE_500


Год выпуска: 1996
Страна: США
Жанр: мелодрама, криминал
Продолжительность: 01:22:42
Перевод: Оксана Дьяченко, andron7851,  mad_alika
Озвучание: Мария Ascolta Артемова
Режиссёр: Майкл Прис (Michael Preece)


В ролях: Патрик Даффи, Линда Грэй, Ларри Хэгмэн, Мишель Джонсон, Стив Кэнэли, Джордж Кеннеди, Трэйси Скоггинс и др.


Описание: Спустя два года после того как Бобби Сью Эллен Юинг захватили власть над контрольным пакетом акций «Юинг Ойл». Хотя Джей Ар теперь управляет другой нефтяной компанией, он хочет вернуть себе принадлежавший его отцу «Юинг Ойл». Когда он узнает, что земля, принадлежащая Рэю Креббсу, заложена в банке и имеет под собой неограниченные залежи нефти, он решает обмануть его и отнять землю, а на прибыль от нефти выкупить контрольный пакет акций «Юинг Ойл». Однако, узнав о намерениях Джей Ар, его враг, Картер Маккей, решает объединиться со Сью Эллен и Бобби, чтобы сохранить контрольный пакет акций.


Качество: DVDRip
Формат: AVI
Видео кодек: XviD
Аудио кодек: mp3
Видео: XviD / 720×576 / 4:3 / 2009 kbps / 25.000 fps / 0.194 bit/pixel
Аудио: RUS VO by Ascolta / mp3 / 48.0 KHz / 192 kbps / 2 channels
Аудио: Original / mp3 / 48.0 KHz / 192 kbps / 2 channels

Media Info »

Video
ID : 0
Format : xvid
Codec ID : xvid
Duration : 1h 22mn
Bit rate : 2 009 Kbps
Width : 720 pixels
Height : 576 pixels
Display aspect ratio : 4:3
Frame rate : 25.000 fps
Standard : PAL
Bits/(Pixel*Frame) : 0.194
Stream size : 1.16 GiB (83%) Audio #1
ID : 1
Format : MPEG Audio
Format version : Version 1
Format profile : Layer 3
Codec ID : 55
Codec ID/Hint : MP3
Duration : 1h 22mn
Bit rate mode : Constant
Bit rate : 192 Kbps
Channel (s) : 2 channels
Sampling rate : 48.0 KHz
Compression mode : Lossy
Stream size : 114 MiB (8%)
Alignment : Aligned on interleaves
Interleave, duration : 40 ms (1.00 video frame)
Interleave, preload duration : 504 ms
Title : by ascolta-info.ru
Writing library : LAME3.99r
Encoding settings : -m s -V 4 -q 3 -lowpass 18.6 -b 192Audio #2
ID : 2
Format : MPEG Audio
Format version : Version 1
Format profile : Layer 3
Codec ID : 55
Codec ID/Hint : MP3
Duration : 1h 22mn
Bit rate mode : Constant
Bit rate : 192 Kbps
Channel (s) : 2 channels
Sampling rate : 48.0 KHz
Compression mode : Lossy
Stream size : 114 MiB (8%)
Alignment : Aligned on interleaves
Interleave, duration : 40 ms (1.00 video frame)
Interleave, preload duration : 504 ms
Writing library : LAME3.99r
Encoding settings : -m s -V 4 -q 3 -lowpass 18.6 -b 192


Скачать »

Яндекс.Диск

rutracker.ru


Смотреть online »


4d47ce654bbd36aed8584db4f3834610

МАТЕРИАЛ ПРЕДОСТАВЛЕН ТОЛЬКО ДЛЯ ОЗНАКОМЛЕНИЯ
Изменение данных (аудио, видео, постеры) при копировании без разрешения администратора сайта ЗАПРЕЩЕНО!